[Решено]mplayer и расширение Send to MPlayer media player

BPOH
но както работает всёровно не корректно
Попробуйте как grayich https://archlinux.org.ru/forum/post/219039/
sudo pacman -S xclip

на хоткей вешаете команду
sh -c "mpv $(xclip -o)"
выделяете ссылку на видео и жмете хоткей

Расширения с новыми ограничениями и изоляциями браузера работают через жуткие костыли
Для mpv еще полезности может подберете что понравится
https://github.com/mpv-player/mpv/wiki/User-Scripts

сам пользуюсь autoload.lua загружает следующий файл в папке ( удобно сериалы или мультики дитю смотреть)
и peerflix-hook.lua смотреть на торренте сразу не полностью загружая

И для мультимедия хоткеев mpv-mpris https://aur.archlinux.org/packages/mpv-mpris/
https://archlinux.org.ru/forum/post/229731/
vs220
BPOH
но както работает всёровно не корректно
Попробуйте как grayich https://archlinux.org.ru/forum/post/219039/
sudo pacman -S xclip

на хоткей вешаете команду
sh -c "mpv $(xclip -o)"
выделяете ссылку на видео и жмете хоткей

Расширения с новыми ограничениями и изоляциями браузера работают через жуткие костыли

Волшебство, не иначе! всё работает всё здорово при много вам благодарен, неоднократно выручали и подсказывали
vs220
Для mpv еще полезности может подберете что понравится
https://github.com/mpv-player/mpv/wiki/User-Scripts

сам пользуюсь autoload.lua загружает следующий файл в папке ( удобно сериалы или мультики дитю смотреть)
и peerflix-hook.lua смотреть на торренте сразу не полностью загружая

И для мультимедия хоткеев mpv-mpris https://aur.archlinux.org/packages/mpv-mpris/
https://archlinux.org.ru/forum/post/229731/
xclip вполне годится, с автозагрузкой следующей серии на десктопе попробую, на нетбуке всего 32гб памяти к сожалению
- mplayer~ом все таки тоже можно...
Не рекламы ради - "альтернтивы-консольного-плеера для" - как вариант в IceArch хоткей (~/.icewm/keys) -
key "Super+j"  /usr/local/bin/mplayer-ytdl_k.sh
Т.е. скрипт для выделенной/скопированной ссылки можно глянуть там же.
Относительно файла конфигурации mpv мне было интересно почитать здесь:

https://mpv.io/manual/stable/#video

В частности, применение опции --hwdec=<api>
Здравствуйте, подскажите пожалуйста на втором ноутбуке видео в mpv тормозит я не сильно уверен в том, что причина в archlinux или mpv ноут довольно старенький а видео снятое с телефона в разрешении 1920х1080 загрузка цп при проигрывании 100%


[[email protected] ~]$ lspci | grep -E "VGA|3D"
00:02.0 VGA compatible controller: Intel Corporation 2nd Generation Core Processor Family Integrated Graphics Controller (rev 09)


[[email protected] ~]$ vainfo
libva error: /usr/lib/dri/iHD_drv_video.so init failed
vainfo: VA-API version: 1.9 (libva 2.9.1)
vainfo: Driver version: Intel i965 driver for Intel(R) Sandybridge Mobile - 2.4.1
vainfo: Supported profile and entrypoints
      VAProfileMPEG2Simple            :	VAEntrypointVLD
      VAProfileMPEG2Main              :	VAEntrypointVLD
      VAProfileH264ConstrainedBaseline:	VAEntrypointVLD
      VAProfileH264ConstrainedBaseline:	VAEntrypointEncSlice
      VAProfileH264Main               :	VAEntrypointVLD
      VAProfileH264Main               :	VAEntrypointEncSlice
      VAProfileH264High               :	VAEntrypointVLD
      VAProfileH264High               :	VAEntrypointEncSlice
      VAProfileH264StereoHigh         :	VAEntrypointVLD
      VAProfileVC1Simple              :	VAEntrypointVLD
      VAProfileVC1Main                :	VAEntrypointVLD
      VAProfileVC1Advanced            :	VAEntrypointVLD
      VAProfileNone                   : VAEntrypointVideoProc

Буду рад любому совету
BPOH, покажите:
$ mediainfo ваш_видео_файл
или
$ ffprobe ваш_видео_файл
а так же какой видео-выход используется в mpv при его просмотре.
Aivar
BPOH, покажите:
$ mediainfo ваш_видео_файл


General
Complete name                            : VID_20200913_141333.mp4
Format                                   : MPEG-4
Format profile                           : Base Media / Version 2
Codec ID                                 : mp42 (isom/mp42)
File size                                : 44.0 MiB
Duration                                 : 23 s 948 ms
Overall bit rate                         : 15.4 Mb/s
Encoded date                             : UTC 2020-09-13 11:13:33
Tagged date                              : UTC 2020-09-13 11:13:33
com.android.version                      : 10

Video
ID                                       : 1
Format                                   : AVC
Format/Info                              : Advanced Video Codec
Format profile                           : [email protected]
Format settings                          : CABAC / 1 Ref Frames
Format settings, CABAC                   : Yes
Format settings, Reference frames        : 1 frame
Format settings, GOP                     : M=1, N=30
Codec ID                                 : avc1
Codec ID/Info                            : Advanced Video Coding
Duration                                 : 23 s 948 ms
Bit rate                                 : 15.0 Mb/s
Width                                    : 1 920 pixels
Height                                   : 1 080 pixels
Display aspect ratio                     : 16:9
Frame rate mode                          : Variable
Frame rate                               : 29.356 FPS
Minimum frame rate                       : 8.453 FPS
Maximum frame rate                       : 29.654 FPS
Color space                              : YUV
Chroma subsampling                       : 4:2:0
Bit depth                                : 8 bits
Scan type                                : Progressive
Bits/(Pixel*Frame)                       : 0.246
Stream size                              : 42.7 MiB (97%)
Title                                    : VideoHandle
Language                                 : English
Encoded date                             : UTC 2020-09-13 11:13:33
Tagged date                              : UTC 2020-09-13 11:13:33
Color range                              : Limited
Color primaries                          : BT.709
Transfer characteristics                 : BT.709
Matrix coefficients                      : BT.709
mdhd_Duration                            : 23948
Codec configuration box                  : avcC

Audio
ID                                       : 2
Format                                   : AAC LC
Format/Info                              : Advanced Audio Codec Low Complexity
Codec ID                                 : mp4a-40-2
Duration                                 : 23 s 936 ms
Bit rate mode                            : Constant
Bit rate                                 : 192 kb/s
Channel(s)                               : 2 channels
Channel layout                           : L R
Sampling rate                            : 48.0 kHz
Frame rate                               : 46.875 FPS (1024 SPF)
Compression mode                         : Lossy
Stream size                              : 562 KiB (1%)
Title                                    : SoundHandle
Language                                 : English
Encoded date                             : UTC 2020-09-13 11:13:33
Tagged date                              : UTC 2020-09-13 11:13:33

или
$ ffprobe ваш_видео_файл
а так же какой видео-выход используется в mpv при его просмотре.
Не сильно понял про видеовыход, конфиг такой:

ytdl-format=bestvideo[height<=?720]+bestaudio/best
hwdec=vaapi
profile=opengl
deband=no
save-position-on-quit
Увожаемый Aivar, не могу найти на форуме вроде ты давал скрипт чтоб можно было повесить на хоткей передачу ссылки видео с ютуб в youtube-viewer если не затруднит подскажи пожалуйста еще разок этот скрипт
 
Зарегистрироваться или войдите чтобы оставить сообщение.